#TITLE:Thank You;
#SUBTITLE:;
#ARTIST:W-inds;
#TITLETRANSLIT:;
#SUBTITLETRANSLIT:;
#ARTISTTRANSLIT:;
#CREDIT:;
#BANNER:thank you-logo.jpg;
#BACKGROUND:thank you.jpg;
#LYRICSPATH:;
#CDTITLE:Lan.png;
#MUSIC:Thank You.mp3;
#OFFSET:-0.020;
#SAMPLESTART:100.000;
#SAMPLELENGTH:12.000;
#SELECTABLE:YES;
#BPMS:0.000=140.000,172.000=70.000,174.000=140.000,310.000=70.000,312.000=140.000;
#STOPS:;
#BGCHANGES:;
// cache tags:
#FIRSTBEAT:3.500;
#LASTBEAT:380.500;
#SONGFILENAME:Songs/SDO pack 1/Thank You/Thank You.sm;
#HASMUSIC:1;
#HASBANNER:1;
#MUSICLENGTH:167.331;
// end cache tags

//---------------dance-single - sky----------------
#NOTES:
     dance-single:
     sky:
     Hard:
     9:
     0.773,0.938,1.000,0.018,0.281,707.000,168.000,3.000,0.000,27.000:

0000
0000
0000
0000
0000
0000
0000
1000
,
1001
0100
0011
1000
1010
0100
1001
0100
,
1011
0000
0010
0100
0011
0010
1100
0010
,
0101
0000
1100
0000
0010
0001
0010
0100
,
1000
0100
0010
0001
0010
0100
1000
0000
,
0101
0100
0011
1000
1010
0100
1001
0100
,
1011
0000
0101
0101
0110
0010
1100
1100
,
1001
0100
0010
0010
0001
0001
0100
0100
,
1111
0000
0000
0000
1100
0000
0101
0000
0000
0000
1000
0100
0010
0001
0000
0000
,
1001
0100
0010
0100
0001
0100
1000
0001
,
0010
0100
0001
0100
0010
0100
1000
0010
,
0101
0010
1001
0001
0110
1000
0100
0010
,
1001
0100
0011
0100
1001
0010
0101
1000
,
1010
0001
0100
0100
1001
0010
0010
0101
,
1001
0000
0010
0000
0100
0000
1001
0000
1000
0100
0010
0001
0000
0000
1001
0000
,
0110
0000
0000
0000
1000
0000
0000
0000
1011
0000
0000
0000
1000
0100
0010
0000
,
1001
0000
0000
0000
0001
0010
0100
0000
0101
0000
0000
0000
0001
0000
0000
0000
,
1101
0011
0000
1001
0000
0000
0000
0000
,
1100
0000
0000
0000
1100
0000
0000
0000
0001
0010
0100
1000
0000
0000
0000
0000
,
0101
0000
1100
0000
0100
0010
0100
0000
,
0101
0000
1001
0000
1000
0100
1000
0000
,
1011
0000
0011
0000
0101
1000
0110
0010
,
1001
0010
0101
1000
0010
0010
1001
0010
,
1001
0100
0010
0001
0010
0100
1010
0001
,
1001
0000
0010
0000
0010
0100
0010
1000
,
1001
0010
0001
0101
0010
0010
1001
0100
,
0011
1000
0100
0010
0001
0100
1000
0010
,
1001
0100
1001
0100
1001
0100
1001
0001
,
1000
0100
0010
0001
0010
0001
0010
0001
,
1100
0101
0011
1000
0100
0010
0112
0000
,
1010
0110
1010
0013
,
1000
0100
1000
0100
0010
0001
0010
0100
,
1000
0010
0001
0010
0100
0001
0100
1000
,
1010
0001
0101
0010
1001
0011
0011
0011
,
1100
1100
1100
0000
1011
1101
0111
0000
,
1111
0000
0011
0100
1010
0010
1001
0010
,
1010
1010
1010
0000
,
1011
0001
0100
0010
0001
0100
1000
0100
,
0020
0000
0000
0000
0000
0000
0000
0000
0030
0000
0000
0000
1000
0100
0010
0000
,
1001
0001
0010
0100
0100
0010
0001
1000
,
0101
0101
0101
0000
,
1000
0100
0010
0001
0100
0010
0100
0010
,
0010
0100
1001
0010
0100
0010
0101
0010
,
0101
0000
0000
0000
0000
0000
0000
1111
0000
0000
0100
0000
0011
0000
1000
0000
,
1010
0100
1001
0100
1011
0000
0010
1100
,
0001
0010
1100
0010
0101
0000
1100
0000
,
0010
0011
0110
1100
1001
1100
0011
0011
,
1010
0110
1001
0000
1111
0010
0001
0010
,
1000
0100
0010
0001
0110
0110
0110
1000
,
0110
0000
1000
0100
0001
0010
0001
1000
,
0010
0000
0001
0000
1000
0100
0010
0000
1001
0000
0000
0000
1000
0000
1001
0000
,
0000
0000
0000
0001
1001
0100
0010
0010
,
0001
0001
0100
0010
0100
0000
0000
0000
,
1001
0010
1010
0010
0011
0010
0110
0010
,
1001
0000
0110
0000
1100
0010
0100
1000
,
1001
0000
0000
0000
0111
0100
1000
0010
,
0100
0001
0100
0010
0100
1000
0010
0001
,
0010
0100
0010
1000
1001
0010
0001
0010
,
1000
0100
0010
0001
0000
0000
0000
0000
1001
0000
0100
0000
0010
0000
0100
0000
,
1001
0000
0000
0000
1000
0100
0010
0000
1001
0000
0100
0000
0010
0000
0100
0000
,
1012
0000
0000
0000
0000
0000
0000
0000
1010
0000
0000
0000
1010
0000
0000
0003
,
1000
0000
0000
0000
0001
0000
0000
0000
1000
0100
0010
0001
1000
0100
0010
0001
,
1000
0010
0001
0010
0100
0010
0100
0001
0010
0100
1000
0100
1000
0010
0001
0100
,
0001
0010
0001
0100
1000
0100
1000
0010
0001
0010
0100
0010
0100
0001
0010
0100
,
1000
0001
0100
0010
0001
0100
0001
0010
1000
0100
0010
0001
0100
0001
0010
1000
,
0100
1000
0100
0010
0001
0100
0001
0010
0001
0010
0100
1000
0001
0010
0100
1000
,
0100
0010
0001
0000
0010
0001
0010
0100
0001
0010
0100
0010
0100
0010
1000
0100
,
0010
0001
1000
0100
0010
0001
0010
0100
0010
0001
1000
0000
0100
0001
1000
0000
,
0100
0001
0010
0100
0010
1000
0100
0010
0001
0100
0010
0001
0100
0010
0001
1000
,
0100
0010
0100
0001
0100
1000
0100
0000
0100
0010
0100
0000
0000
0000
0000
0000
,
0001
0010
1010
1000
,
1001
0000
0000
0000
0101
1000
0100
0010
,
0001
0000
1000
1000
1000
0100
0010
0010
,
0000
0001
0000
0001
0000
0000
1000
0000
1000
0000
0001
0000
0010
0000
0100
0000
,
1000
1000
0100
0010
0001
0000
0001
0001
,
0001
1000
0100
0010
0100
1000
0100
0001
,
0100
1000
0001
0100
1011
0000
0000
1101
,
0000
0000
0000
0000
0000
0000
0000
0000
0000
0000
0000
0000
0000
0000
0000
1111
,
0000
0100
0010
0001
,
1000
0100
0010
0001
0100
0010
1000
0100
,
0010
0001
1000
0001
0100
0010
0001
1000
,
0100
0001
0100
0010
1000
0001
0100
0011
,
1000
0100
0001
0010
1000
0100
0010
0100
,
0001
0100
0001
1000
0101
0000
0000
0000
,
0001
0010
0010
1000
0010
0001
1000
0100
,
1001
0000
1000
0100
0010
0000
0111
0000
0000
0000
0000
0000
0000
0000
0000
0000
,
1001
0100
0110
0010
1001
0010
0110
0010
,
0000
0100
0010
0001
1000
0100
0010
0001
0100
0010
0001
1000
0010
1000
0001
0010
,
0001
0100
0010
0001
1000
0100
0010
0001
0100
0010
0001
1000
0010
1000
0001
0000
,
1001
0000
0010
0000
1001
0000
0010
0010
,
1001
0011
0000
1001
0000
0000
0000
0000
,
1100
1100
0010
1001
,
1011
0001
0010
1000
,
0100
0000
1000
0100
0010
0001
1000
0100
,
0010
0001
1000
0100
0010
0001
1000
0100
,
0010
0001
0000
0000
0000
0000
0000
0000
;

//---------------dance-single - sky----------------
#NOTES:
     dance-single:
     sky:
     Medium:
     9:
     0.750,0.938,0.867,0.018,0.290,710.000,145.000,3.000,0.000,23.000:




0000
0000
0000
0000
0000
0000
0000
1000
,
0110
0100
1001
1000
0110
0100
1001
0100
,
1001
0000
0010
0100
0110
0100
1001
0010
,
1001
0000
1001
0000
0010
0001
0010
0100
,
1000
0100
0010
0001
0010
0100
1000
0000
,
0100
0100
0001
0100
1000
0100
0001
0100
,
1000
0000
0100
0001
0100
0010
0100
0100
,
1000
0100
0010
0010
0001
0001
0100
0100
,
1001
0000
0000
0000
0100
0000
0100
0000
0000
0000
1000
0100
0010
0001
0000
0000
,
1000
0100
0010
0100
0001
0100
1000
0001
,
0010
0100
0001
0100
0010
0100
1000
0010
,
0101
0010
1001
0001
0100
1000
0100
0010
,
1001
0100
0001
0100
1001
0010
0001
1000
,
1000
0001
0100
0100
1001
0010
0010
0101
,
1001
0000
0010
0000
0100
0000
1001
0000
1000
0100
0010
0001
0000
0000
1001
0000
,
0110
0000
0000
0000
1000
0000
0000
0000
1011
0000
0000
0000
1000
0100
0010
0000
,
1001
0000
0000
0000
0001
0010
0100
0000
0101
0000
0000
0000
0001
0000
0000
0000
,
1001
0101
0000
1001
0000
0000
0000
0000
,
1100
0000
0000
0000
1100
0000
0000
0000
0001
0010
0100
1000
0000
0000
0000
0000
,
0101
0000
1100
0000
0100
0010
0100
0000
,
0101
0000
1001
0000
1000
0100
1000
0000
,
1011
0000
0011
0000
0101
1000
0110
0010
,
1001
0010
0101
1000
0010
0010
1001
0010
,
1001
0100
0010
0001
0010
0100
1010
0001
,
1001
0000
0010
0000
0010
0100
0010
1000
,
1001
0010
0001
0101
0010
0010
1001
0100
,
0011
1000
0100
0010
0001
0100
1000
0010
,
1001
0100
1001
0100
1001
0100
1001
0001
,
1000
0100
0010
0001
0010
0001
0010
0001
,
1100
0101
0011
1000
0100
0010
0112
0000
,
1010
0110
1010
0013
,
1000
0100
1000
0100
0010
0001
0010
0100
,
1000
0010
0001
0010
0100
0001
0100
1000
,
1010
0001
0101
0010
1001
0011
0011
0011
,
1000
1000
1000
0000
1011
1101
0111
0000
,
1011
0000
0011
0100
1010
0010
1001
0010
,
1000
0001
0000
0000
1000
0001
0000
0000
1000
0001
0000
0000
0000
0000
0000
0000
,
1011
0001
0100
0010
0001
0100
1000
0100
,
0020
0000
0000
0000
0000
0000
0000
0000
0030
0000
0000
0000
1000
0100
0010
0000
,
1001
0001
0010
0100
0100
0010
0001
1000
,
0101
0101
0101
0000
,
1000
0100
0010
0001
0100
0010
0100
0010
,
0010
0100
1001
0010
0100
0010
0101
0010
,
0101
0000
0000
0000
0000
0000
0000
1111
0000
0000
0100
0000
0011
0000
1000
0000
,
1010
0100
1001
0100
1011
0000
0010
1100
,
0001
0010
1100
0010
0101
0000
1100
0000
,
0010
0011
0110
1100
1001
1100
0011
0011
,
1010
0110
1001
0000
1111
0010
0001
0010
,
1000
0100
0010
0001
0110
0110
0110
1000
,
0110
0000
1000
0100
0001
0010
0001
1000
,
0010
0000
0001
0000
1000
0100
0010
0000
1001
0000
0000
0000
1000
0000
1001
0000
,
0000
0000
0000
0001
1001
0100
0010
0010
,
0001
0001
0100
0010
0100
0000
0000
0000
,
1001
0010
1010
0010
0011
0010
0110
0010
,
1001
0000
0110
0000
1100
0010
0100
1000
,
1001
0000
0000
0000
0111
0100
1000
0010
,
0100
0001
0100
0010
0100
1000
0010
0001
,
0010
0100
0010
1000
1001
0010
0001
0010
,
1000
0100
0010
0001
0000
0000
0000
0000
1001
0000
0100
0000
0010
0000
0100
0000
,
1001
0000
0000
0000
1000
0100
0010
0000
1001
0000
0100
0000
0010
0000
0100
0000
,
1012
0000
0000
0000
0000
0000
0000
0000
1010
0000
0000
0000
1010
0000
0000
0003
,
1000
0000
0000
0000
0001
0000
0000
0000
1000
0100
0010
0001
1000
0100
0010
0001
,
1000
0100
0010
0001
1000
0100
0010
0001
1000
0100
0010
0001
1000
0100
0010
0001
,
0001
0010
0100
1000
0001
0010
0100
1000
0001
0010
0100
1000
0001
0010
0100
1000
,
0001
0010
0100
1000
0001
0010
0100
1000
0001
0010
0100
1000
0001
0010
0100
1000
,
0100
1000
0100
0010
0001
0100
0001
0010
0001
0010
0100
1000
0001
0010
0100
1000
,
0100
0010
0001
0000
0010
0001
0010
0100
0001
0010
0100
0010
0100
0010
1000
0100
,
0010
0001
1000
0100
0010
0001
0010
0100
0010
0001
1000
0000
0100
0001
1000
0000
,
0100
0001
0010
0100
0010
1000
0100
0010
0001
0100
0010
0001
0100
0010
0001
1000
,
0100
0010
0100
0001
0100
1000
0100
0000
0101
0010
0100
0000
0000
0000
0000
0000
,
0001
0010
1010
1000
,
1001
0000
0000
0000
0101
1000
0100
0010
,
0001
0000
1000
1000
1000
0100
0010
0010
,
0000
0001
0000
0001
0000
0000
1000
0000
1000
0000
0001
0000
0010
0000
0100
0000
,
1000
1000
0100
0010
0001
0000
0001
0001
,
0001
1000
0100
0010
0100
1000
0100
0001
,
0100
1000
0001
0100
1011
0000
0000
1101
,
0000
0000
0000
0000
0000
0000
0000
0000
0000
0000
0000
0000
0000
0000
0000
1111
,
0000
0100
0010
0001
,
1000
0100
0010
0001
0100
0010
1000
0100
,
0010
0001
1000
0001
0100
0010
0001
1000
,
0100
0001
0100
0010
1000
0001
0100
0011
,
1000
0100
0001
0010
1000
0100
0010
0100
,
0001
0100
0001
1000
0101
0000
0000
0000
,
0001
0010
0010
1000
0010
0001
1000
0100
,
1001
0000
1000
0100
0010
0000
0111
0000
0000
0000
0000
0000
0000
0000
0000
0000
,
1001
0100
0110
0010
1001
0010
0110
0010
,
0000
0100
0010
0001
1000
0100
0010
0001
0100
0010
0001
1000
0010
1000
0001
0010
,
0001
0100
0010
0001
1000
0100
0010
0001
0100
0010
0001
1000
0010
1000
0001
0000
,
1001
0000
0010
0000
1001
0000
0010
0010
,
1001
0011
0000
1001
0000
0000
0000
0000
,
1100
1100
0010
1001
,
1011
0001
0010
1000
,
0100
0000
1000
0100
0010
0001
1000
0100
,
0010
0001
1000
0100
0010
0001
1000
0100
,
0010
0001
0000
0000
0000
0000
0000
0000
;

//---------------dance-single - sky----------------
#NOTES:
     dance-single:
     sky:
     Easy:
     9:
     0.765,0.938,1.000,0.018,0.254,700.000,168.000,3.000,0.000,26.000:





0000
0000
0000
0000
0000
0000
0000
1000
,
1001
0100
0011
1000
1010
0100
1001
0100
,
1011
0000
0010
0100
0011
0010
1100
0010
,
0101
0000
1100
0000
0010
0001
0010
0100
,
1000
0100
0010
0001
0010
0100
1000
0000
,
0101
0100
0011
1000
1010
0100
1001
0100
,
1011
0000
0101
0101
0110
0010
1100
1100
,
1001
0100
0010
0010
0001
0001
0100
0100
,
1111
0000
0000
0000
1100
0000
0101
0000
0000
0000
1000
0100
0010
0001
0000
0000
,
1001
0100
0010
0100
0001
0100
1000
0001
,
0010
0100
0001
0100
0010
0100
1000
0010
,
0101
0010
1001
0001
0110
1000
0100
0010
,
1001
0100
0011
0100
1001
0010
0101
1000
,
1010
0001
0100
0100
1001
0010
0010
0101
,
1001
0000
0010
0000
0100
0000
1001
0000
1000
0100
0010
0001
0000
0000
1001
0000
,
0110
0000
0000
0000
1000
0000
0000
0000
1011
0000
0000
0000
1000
0100
0010
0000
,
1001
0000
0000
0000
0001
0010
0100
0000
0101
0000
0000
0000
0001
0000
0000
0000
,
1101
0011
0000
1001
0000
0000
0000
0000
,
1100
0000
0000
0000
1100
0000
0000
0000
0001
0010
0100
1000
0000
0000
0000
0000
,
0101
0000
1100
0000
0100
0010
0100
0000
,
0101
0000
1001
0000
1000
0100
1000
0000
,
1011
0000
0011
0000
0101
1000
0110
0010
,
1001
0010
0101
1000
0010
0010
1001
0010
,
1001
0100
0010
0001
0010
0100
1010
0001
,
1001
0000
0010
0000
0010
0100
0010
1000
,
1001
0010
0001
0101
0010
0010
1001
0100
,
0011
1000
0100
0010
0001
0100
1000
0010
,
1001
0100
1001
0100
1001
0100
1001
0001
,
1000
0100
0010
0001
0010
0001
0010
0001
,
1100
0101
0011
1000
0100
0010
0112
0000
,
1010
0110
1010
0013
,
1000
0100
1000
0100
0010
0001
0010
0100
,
1000
0010
0001
0010
0100
0001
0100
1000
,
1010
0001
0101
0010
1001
0011
0011
0011
,
1100
1100
1100
0000
1011
1101
0111
0000
,
1111
0000
0011
0100
1010
0010
1001
0010
,
1010
1010
1010
0000
,
1011
0001
0100
0010
0001
0100
1000
0100
,
0020
0000
0000
0000
0000
0000
0000
0000
0030
0000
0000
0000
1000
0100
0010
0000
,
1001
0001
0010
0100
0100
0010
0001
1000
,
0101
0101
0101
0000
,
1000
0100
0010
0001
0100
0010
0100
0010
,
0010
0100
1001
0010
0100
0010
0101
0010
,
0101
0000
0000
0000
0000
0000
0000
1111
0000
0000
0100
0000
0011
0000
1000
0000
,
1010
0100
1001
0100
1011
0000
0010
1100
,
0001
0010
1100
0010
0101
0000
1100
0000
,
0010
0011
0110
1100
1001
1100
0011
0011
,
1010
0110
1001
0000
1111
0010
0001
0010
,
1000
0100
0010
0001
0110
0110
0110
1000
,
0110
0000
1000
0100
0001
0010
0001
1000
,
0010
0000
0001
0000
1000
0100
0010
0000
1001
0000
0000
0000
1000
0000
1001
0000
,
0000
0000
0000
0001
1001
0100
0010
0010
,
0001
0001
0100
0010
0100
0000
0000
0000
,
1001
0010
1010
0010
0011
0010
0110
0010
,
1001
0000
0110
0000
1100
0010
0100
1000
,
1001
0000
0000
0000
0111
0100
1000
0010
,
0100
0001
0100
0010
0100
1000
0010
0001
,
0010
0100
0010
1000
1001
0010
0001
0010
,
1000
0100
0010
0001
0000
0000
0000
0000
1001
0000
0100
0000
0010
0000
0100
0000
,
1001
0000
0000
0000
1000
0100
0010
0000
1001
0000
0100
0000
0010
0000
0100
0000
,
1012
0000
0000
0000
0000
0000
0000
0000
1010
0000
0000
0000
1010
0000
0000
0003
,
1000
0000
0001
0000
1000
0010
1000
0010
,
1000
0001
0100
0010
0010
1000
1000
0001
,
0001
0000
0001
0000
1000
0000
1000
0000
1000
0100
0010
0001
1000
0100
0010
0001
,
1000
0100
0010
0001
1000
0100
0010
0001
1000
0100
0010
0001
1000
0100
0010
0001
,
1000
0100
1000
0100
1000
0100
1000
0100
1000
0100
1000
0100
1000
0100
1000
0100
,
0001
0010
0001
0010
0001
0010
0001
0010
0001
0010
0001
0010
0001
0010
0001
0010
,
0001
0010
0001
0010
0001
0010
0001
0010
0001
0010
0001
0010
0001
0010
0001
0010
,
0001
0010
0100
1000
0001
0010
0100
1000
0001
0010
0100
1000
0001
0010
0100
1000
,
0001
0010
0100
1000
0001
0010
0100
1000
0001
0010
0100
1000
0001
0010
0100
1000
,
0001
0010
1010
1000
,
1001
0000
0000
0000
0101
1000
0100
0010
,
0001
0000
1000
1000
1000
0100
0010
0010
,
0000
0001
0000
0001
0000
0000
1000
0000
1000
0000
0001
0000
0010
0000
0100
0000
,
1000
1000
0100
0010
0001
0000
0001
0001
,
0001
1000
0100
0010
0100
1000
0100
0001
,
0100
1000
0001
0100
1011
0000
0000
1101
,
0000
0000
0000
0000
0000
0000
0000
0000
0000
0000
0000
0000
0000
0000
0000
1001
,
0000
0100
0010
0001
,
1000
0100
0010
0001
0100
0010
1000
0100
,
0010
0001
1000
0001
0100
0010
0001
1000
,
0100
0001
0100
0010
1000
0001
0100
0011
,
1000
0100
0001
0010
1000
0100
0010
0100
,
0001
0100
0001
1000
0101
0000
0000
0000
,
0001
0010
0010
1000
0010
0001
1000
0100
,
1001
0000
1000
0100
0010
0000
0111
0000
0000
0000
0000
0000
0000
0000
0000
0000
,
1001
0100
0110
0010
1001
0010
0110
0010
,
0000
0100
0010
0001
1000
0100
0010
0001
0100
0010
0001
1000
0010
1000
0001
0010
,
0001
0100
0010
0001
1000
0100
0010
0001
0100
0010
0001
1000
0010
1000
0001
0000
,
1001
0000
0010
0000
1001
0000
0010
0010
,
1001
0011
0000
1001
0000
0000
0000
0000
,
1100
1100
0010
1001
,
1011
0001
0010
1000
,
0100
0000
1000
0100
0010
0001
1000
0100
,
0010
0001
1000
0100
0010
0001
1000
0100
,
0010
0001
0000
0000
0000
0000
0000
0000
;
